使用EAC將CD轉成WAV+cue出現暴音...

討論MP3、WAV、MIDI、WMA甚至其他數位音訊的播放、製作、轉換等。

版主: DearHoney

回覆文章
pocket634ernest
文章: 1
註冊時間: 2011-05-01 18:00

使用EAC將CD轉成WAV+cue出現暴音...

文章 pocket634ernest » 2011-05-01 18:15

請問版上大大關於EAC的問題:

1. 最近心血來潮想將所有CD轉成wav+cue,想說以後要轉成別的無損壓縮格式

比較方便,CD也不用帶來帶去避免刮傷;但轉幾張略有刮傷的CD後,發現出現一些error,顯示有

Suspicious position ,以foobar2000點cue直接播放WAV會出現"嘶嘶"的電流破音,但直接以光碟機

播放則無此問題,請問是我的參數設定有問題嗎? 有沒有辦法避免出現暴音(用wav+cue轉ALAC也會

有爆音)?

2.某些CD在轉成wav+cue檔後在整張專集結尾時也會顯示Suspicious position (即爆音處),有些CD

轉成wav+cue則不會,why???

以下是我的EAC設定參數
----------------------------------
Exact Audio Copy V1.0 beta 1 from 15. November 2010

EAC extraction logfile from 27. April 2011, 9:22

The Cardigans / Best Of (CD 1)

Used drive : PIONEER DVD-RW DVR-XD09 Adapter: 3 ID: 0

Read mode : Secure
Utilize accurate stream : Yes
Defeat audio cache : Yes
Make use of C2 pointers : Yes

Read offset correction : 66
Overread into Lead-In and Lead-Out : No
Fill up missing offset samples with silence : Yes
Delete leading and trailing silent blocks : No
Null samples used in CRC calculations : Yes
Used interface : Installed external ASPI interface

Used output format : Internal WAV Routines
Sample format : 44.100 Hz; 16 Bit; Stereo


TOC of the extracted CD

Track | Start | Length | Start sector | End sector
---------------------------------------------------------
1 | 0:00.00 | 3:31.28 | 0 | 15852
2 | 3:31.28 | 3:27.36 | 15853 | 31413
3 | 6:58.64 | 2:57.49 | 31414 | 44737
4 | 9:56.38 | 3:39.22 | 44738 | 61184
5 | 13:35.60 | 3:37.51 | 61185 | 77510
6 | 17:13.36 | 3:18.18 | 77511 | 92378
7 | 20:31.54 | 3:42.56 | 92379 | 109084
8 | 24:14.35 | 3:21.09 | 109085 | 124168
9 | 27:35.44 | 3:57.21 | 124169 | 141964
10 | 31:32.65 | 3:40.31 | 141965 | 158495
11 | 35:13.21 | 3:35.52 | 158496 | 174672
12 | 38:48.73 | 3:41.71 | 174673 | 191318
13 | 42:30.69 | 4:34.60 | 191319 | 211928
14 | 47:05.54 | 4:18.53 | 211929 | 231331
15 | 51:24.32 | 3:55.53 | 231332 | 249009
16 | 55:20.10 | 4:16.42 | 249010 | 268251
17 | 59:36.52 | 4:29.16 | 268252 | 288442
18 | 64:05.68 | 3:34.40 | 288443 | 304532
19 | 67:40.33 | 3:37.32 | 304533 | 320839
20 | 71:17.65 | 3:30.47 | 320840 | 336636
21 | 74:48.37 | 0:22.66 | 336637 | 338352
22 | 75:11.28 | 3:38.72 | 338353 | 354774


Range status and errors

Selected range

Filename C:\Users\ERNEST WANG\Desktop\The Cardigans - Best Of (CD 1).wav

Suspicious position 1:18:14 - 1:18:15
Suspicious position 1:18:17 - 1:18:50

Peak level 100.0 %
Extraction speed 0.0 X
Range quality 97.8 %
Copy CRC B11698BD
Copy finished

There were errors

End of status report

回覆文章